#TITLE:I'm Not OK;
#SUBTITLE:~ADN original~;
#ARTIST:My Chemical Romance;
#TITLETRANSLIT:;
#SUBTITLETRANSLIT:;
#ARTISTTRANSLIT:;
#CREDIT:;
#BANNER:imnotok-banner.png;
#BACKGROUND:imnotok-bg.png;
#LYRICSPATH:;
#CDTITLE:ADNcdtittle!!!.png;
#MUSIC:my chemical romance - i'm not okay (i promise)(2).mp3;
#OFFSET:-0.315;
#SAMPLESTART:47.790;
#SAMPLELENGTH:12.000;
#SELECTABLE:YES;
#BPMS:0.000=179.801,336.000=89.902,360.000=179.799,392.000=89.905,422.750=179.797;
#STOPS:422.500=0.800
;
#BGCHANGES:;
// cache tags:
#FIRSTBEAT:8.000;
#LASTBEAT:499.000;
#SONGFILENAME:Songs/Chilean Keyboard Megapack 3/(ADN) Im Not OK/Im Not OK.sm;
#HASMUSIC:1;
#HASBANNER:1;
#MUSICLENGTH:188.531;
// end cache tags

//---------------dance-single - ----------------
#NOTES:
     dance-single:
     :
     Challenge:
     11:
     1.000,1.000,1.000,1.000,1.000,1563.000,212.000,277.000,0.000,2.000:
0000
0000
0000
0000
,
0000
0000
0000
0000
,
1001
0110
0101
1010
0101
0110
1100
0110
,
0101
1010
0101
1001
0110
0000
1001
0000
,
1001
0010
1000
0100
0001
0100
1000
0100
1000
0010
0100
0001
0010
0100
1000
0010
,
0100
0001
0100
1000
0100
0001
0010
0100
1000
0100
0010
0001
0010
0100
1000
0100
,
0010
0100
1000
0001
0100
1000
0100
0001
0010
0001
0100
1000
0100
0001
0010
0100
,
1000
0100
0010
0100
1000
0100
0010
0001
0010
0100
0010
0001
0010
0100
1000
0001
,
0010
0100
1000
0100
0010
0001
0010
0001
1000
0010
1000
0100
1000
0001
0100
0001
,
0010
0001
0100
1000
0100
0001
0010
0001
1000
0010
1000
0100
1000
0001
0100
0010
,
0100
0001
0100
0010
0100
0001
1000
0100
0010
0100
1000
0100
0001
0100
1000
0010
,
0100
0001
1000
0010
0100
0010
1000
0010
0100
0010
1000
0100
1000
0001
0100
0001
,
0010
0001
0100
1000
0100
0001
0010
0100
1000
0001
0100
1000
0100
0001
0010
0100
,
1000
0001
0100
1000
0100
0001
0100
0010
0100
0001
0010
0100
1000
0010
1000
0100
,
1000
0001
0010
0001
0100
1000
0100
0001
0010
0100
1000
0001
0100
1000
0100
0001
,
0010
0100
1000
0100
0010
0001
0010
0100
1000
0100
0010
0001
0010
0100
1000
0001
,
0100
0010
0100
0001
1000
0100
1000
0001
0010
0001
1000
0010
1000
0001
0010
0001
,
1000
0100
1000
0001
0100
0001
0010
0001
0100
1000
0100
0001
0010
0100
1000
0010
,
0100
0001
0010
0100
1000
0100
0010
0001
0100
0010
1000
0100
0010
0001
0100
0010
,
1000
0010
0100
0001
0010
0100
1000
0001
0100
1000
0100
0010
2020
3030
0220
0330
,
2002
3003
0100
0000
0001
0000
2020
3030
0100
0000
0202
0303
0010
0000
2002
3003
,
0100
0000
0001
0000
0220
0330
2200
3300
0010
0000
0022
0033
0100
0000
2200
3300
,
0001
0000
0100
0000
0220
0330
2002
3003
0010
0000
0202
0303
0010
0000
2020
3030
,
0001
0000
0100
0000
1000
0000
0100
0000
0001
0000
0010
0000
0100
0000
0220
0330
,
2002
3003
0220
0330
0001
0000
2200
3300
0010
0000
0022
0033
1000
0000
2200
3300
,
0001
0000
0220
0330
1000
0000
0022
0033
1000
0000
0220
0330
0001
0000
2200
3300
,
0010
0000
0100
0000
0202
0303
2020
3030
0100
0000
0202
0303
0010
0000
0100
0000
,
2002
3003
0202
0303
2200
3300
2020
3030
0022
0033
0202
0303
2200
3300
0220
0330
,
0001
0000
1000
0000
0220
0330
2200
3300
0010
0000
0202
0303
1000
0000
2002
3003
,
0010
0000
0220
0330
1000
0000
0202
0303
0010
0000
1000
0000
0100
0000
0011
0100
,
1100
0000
0220
0330
0001
0000
2002
3003
0100
0000
0220
0330
1000
0000
0202
0303
,
0010
0000
2020
3030
0100
0000
0202
0303
0010
0000
1000
0000
0100
0000
0101
0100
,
1010
0000
0220
0330
0001
0000
2002
3003
0100
0000
0220
0330
0001
0000
2200
3300
,
0010
0000
0022
0033
1000
0000
0202
0303
1000
0000
2020
3030
0100
0000
0220
0330
,
1000
0000
0202
0303
0010
0000
2002
3003
0100
0000
0220
0330
0001
0000
0022
0033
,
0100
0000
2200
3300
0001
0000
0220
0330
1000
0000
0202
0000
0000
0000
0303
0000
,
1001
0100
0010
1000
0100
0010
0100
1000
0010
0100
0001
0010
0100
1000
0001
0100
,
0010
1000
0010
1000
0001
0100
0001
0010
0100
1000
0100
0010
0100
1000
0100
0010
,
0100
1000
0001
0100
0010
0100
0001
0100
0010
1000
0100
0010
0001
0010
0100
1000
,
0100
0010
0001
1000
0100
0010
0001
0010
0100
0010
0001
0010
0100
1000
0001
0100
,
0001
1000
0010
1000
0001
0010
0001
1000
0100
1000
0001
0100
0010
1000
0001
0100
,
0010
1000
0100
0010
0001
0010
0100
1000
0001
0100
0001
0010
0001
0100
0010
1000
,
0100
1000
0001
0100
0001
0010
0001
1000
0010
1000
0001
0100
0001
1000
0100
0010
,
0001
1000
0100
0010
0001
1000
0100
0001
0100
1000
0010
0100
0001
0010
0100
1000
,
0010
0100
0001
0010
0100
1000
0001
0100
0010
0100
0001
0010
0100
1000
0100
0010
,
0001
0100
0010
1000
0100
0010
0001
0100
0010
1000
0100
0010
0100
1000
0100
0001
,
0100
1000
0010
0100
0001
0010
0100
1000
0010
1000
0001
0010
0001
0100
1000
0100
,
0001
0010
0100
1000
0001
0100
1000
0100
0010
0100
0010
1000
0100
0001
0100
1000
,
0100
0001
0100
1000
0010
0001
0010
1000
0100
0010
0001
1000
0100
0010
0001
0010
,
1000
0010
0001
0100
1000
0100
0001
1000
0010
0100
0001
1000
0010
0100
0001
1000
,
0100
0010
0001
1000
0001
0010
0100
1000
0001
0100
0010
1000
0001
0010
0100
1000
,
0100
1000
0100
0010
0001
0010
0100
1000
0100
0010
0001
0010
2200
3300
2002
3003
,
0220
0330
0001
0000
0220
0330
0100
0000
2002
3003
0100
0000
0022
0033
0100
0000
,
1000
0000
0202
0303
2020
3030
0100
0000
2200
3300
0001
0000
2020
3030
0100
0000
,
0010
0000
0202
0303
2020
3030
0100
0000
0022
0033
0100
0000
1010
0100
0010
1000
,
0001
0100
0010
1000
0100
0010
0001
1000
0100
0010
0001
0010
0100
0010
2002
3003
,
2200
3300
0202
0303
0010
0000
0022
0033
0100
0000
2200
3300
0010
0000
0220
0330
,
0001
0000
0100
0000
2200
3300
2002
3003
0100
0000
2020
3030
0100
0000
0202
0303
,
0010
0000
0100
0000
2020
3030
0022
0033
0001
0000
2200
3300
0202
0303
0010
0000
,
2002
3203
0320
0032
0023
0230
2300
3002
0203
2300
3200
0302
0023
0230
2302
0000
,
0000
0000
3003
0000
2020
3030
0202
0303
0010
0000
2200
3300
0001
0000
0022
0033
,
0100
0000
2020
3030
0100
0000
0202
0303
0010
0000
0100
0000
2020
3030
1100
0010
,
0101
0000
0010
0000
2002
3003
0100
0000
0010
0000
2002
3003
0220
0330
0100
0000
,
2200
3300
0010
0000
0202
0303
0010
0000
1000
0000
0010
0000
1001
0100
0110
0000
,
0202
0303
0100
0000
2020
3030
0100
0000
0202
0303
0001
0000
2020
3030
0100
0000
,
0202
0303
0010
0000
0220
0330
1000
0000
0022
0033
1000
0000
0202
0303
0010
0000
,
2002
0000
0000
0000
0000
0000
0000
0000
3003
0000
2020
0000
3030
0022
0000
0033
,
0202
0303
0000
2200
3300
0000
0022
0033
2200
0000
3300
0000
0220
0000
0330
0000
,
1001
0100
0010
0001
0100
1000
0100
0001
0010
0001
0100
1000
0100
0001
0010
0001
,
1000
0100
1000
0001
1000
0010
1000
0001
0010
0001
1000
0001
0100
1000
0100
0001
,
0010
0100
1000
0001
0010
0100
1000
0100
0010
0001
0010
0100
1000
0100
0010
0001
,
1000
0100
0010
0001
0010
0100
1000
0001
0100
0001
0010
0001
1000
0100
1000
0010
,
1000
0001
0100
1000
0100
0001
0010
1000
0010
0001
0100
1000
0100
0001
0010
0001
,
1000
0100
0001
0100
1000
0100
0001
0100
1000
0010
0001
0010
1000
0010
0001
0010
,
1000
0100
0010
0100
1000
0100
0010
0100
1000
0001
0100
0010
0100
0001
1000
0100
,
0010
0100
1000
0001
0100
0001
0010
0001
1000
0010
1000
0001
0100
0001
1000
0100
,
1000
0001
0100
0010
0100
0001
0010
0001
0100
0001
0010
0001
0100
0010
1000
0100
,
0010
0100
1000
0100
0010
0100
1000
0010
0100
0010
1000
0010
0100
0010
1000
0100
,
0001
0100
1000
0001
0100
0001
1000
0100
1000
0001
0010
0100
0010
0001
0100
0010
,
0100
0001
1000
0010
0100
0010
1000
0100
0001
0100
1000
0001
0100
1000
0100
0001
,
0010
0001
0100
1000
0100
0010
1000
0100
1000
0001
0100
0001
0010
0001
1000
0100
,
1000
0001
0100
0001
0010
0001
1000
0010
0100
0010
1000
0001
0100
0001
1000
0100
,
0001
0100
1000
0010
0100
0001
0010
0100
1000
0010
0100
0001
0010
0100
1000
0100
,
0010
0100
1000
0010
0100
0001
0010
0100
1000
0010
0100
0001
1000
0100
0010
0100
,
2002
3003
0220
0330
1010
0101
1100
0110
,
0001
1100
0011
0100
1100
0110
0011
0110
,
2002
3003
0220
0330
1100
0110
0101
1100
,
0010
0000
0110
0000
0011
0000
0101
0000
1001
0100
0010
0001
1000
0100
0010
0001
,
0101
0000
0000
0000
1100
0000
0000
0000
0010
0001
1000
0100
0010
0000
0001
0000
0010
0000
0100
0000
1000
0000
0100
0000
2002
0000
0000
0000
3003
0000
0000
0000
,
0202
0000
0000
0000
0303
0000
0000
0000
0000
0000
0000
0000
0000
0000
0000
0000
1000
0100
0010
0100
1000
0010
0100
0001
0010
0100
1000
0001
0010
0001
1000
0100
,
1010
0100
0001
0010
0100
1000
0001
0100
0001
1000
0100
0010
0001
0010
0100
1000
,
0100
0010
0001
0100
0001
1000
0100
0010
0100
1000
0010
0100
0010
1000
0100
0010
,
0100
1000
0010
0100
0001
0010
0100
0010
0001
0100
0010
0100
0001
0010
0100
1000
,
0010
0100
0001
0100
0010
1000
0100
0010
0001
0100
0010
1000
0100
0001
0100
1000
,
0001
0100
0001
0010
0001
0100
0010
1000
0100
0010
0100
1000
0001
0100
0010
1000
,
0100
0010
0001
0100
0010
1000
0010
0100
0001
0010
0100
1000
0001
0100
0001
1000
,
0010
1000
0001
0010
0001
1000
0100
1000
0001
0100
0010
1000
0010
0100
0001
0100
,
0010
1000
0100
0001
0100
1000
0001
0100
0010
1000
0001
0100
0010
1000
0001
0010
,
2200
0000
0000
3300
0000
0000
0000
0000
0202
0000
0000
0303
0000
0000
0000
0000
,
2002
0000
0000
3003
0000
0000
0000
0000
2200
0000
0000
3300
0022
0000
0000
0033
,
1001
0010
0001
0010
1100
0100
0010
0001
0110
0001
1000
0010
0101
0010
1000
0100
,
1010
1000
0001
1000
0011
0001
1000
0010
1100
0000
0100
0000
1001
0000
0010
0000
,
0101
1000
0011
0100
1100
0010
0110
0100
,
1001
0000
0010
0000
0011
0000
1000
0000
0010
1000
0100
1000
0010
0100
0001
0100
,
1001
0110
1001
0011
1100
1001
0101
0110
,
1001
0110
0101
0110
1100
0110
0011
1001
0110
1100
0022
0033
1001
0010
1000
0100
,
0001
0100
1000
0010
0100
0001
0010
0100
1000
0001
0010
0100
1000
0001
0100
0010
,
1000
0100
0010
0001
1000
0100
0010
0001
0010
0100
1000
0100
0010
0001
0010
0100
,
1000
0100
0010
0001
0100
0010
1000
0010
0100
0001
0100
0010
1000
0100
0010
0001
,
0010
0100
1000
0100
0010
0001
0010
0100
1000
0010
0100
0001
0100
0010
1000
0100
,
0010
0001
0100
0010
1000
0010
0100
0001
0010
0100
1000
0010
0100
0001
1000
0100
,
1000
0001
0100
0001
1000
0010
1000
0001
0010
0001
1000
0100
1000
0001
0100
1000
,
0100
0001
0010
1000
0010
0001
0100
0010
0100
0001
1000
0100
0010
0100
1000
0100
,
0001
0100
1000
0010
0100
0001
0010
0100
1000
0010
1000
0100
0010
0001
0010
0100
,
1000
0010
0100
0001
0100
0010
1000
0001
0100
0010
1000
0001
0100
0010
1000
0001
,
0100
0010
1000
0001
0100
1000
0100
0001
0010
0100
1000
0001
0010
0100
1000
0100
,
0010
0001
0100
0001
1000
0100
1000
0010
1000
0001
0010
0001
1000
0100
1000
0001
,
0100
0010
0100
0001
0010
0100
1000
0010
0100
0001
0010
0100
1000
0100
1000
0010
,
0100
0001
0100
1000
0100
0001
0010
0001
0010
0100
1000
0100
0010
0001
0010
0100
,
1000
0001
0100
0001
1000
0010
1000
0100
1000
0001
0010
0001
1000
0100
1000
0001
,
0100
0010
0100
0001
0010
0100
1000
0100
0010
0001
1000
0100
0010
0001
0010
0100
,
1000
0001
0100
1000
0100
0001
0010
0100
1000
0001
0010
0100
1000
0010
2002
0000
,
0000
0000
0000
0000
,
0000
0000
0000
0000
,
0000
0000
0000
3003
;
